asper
Posts: 3
Joined: 03 May 2019, 23:03

ISO+CUE Problem

03 May 2019, 23:07

I have a collection made of ISO+CUE but none of the games are listed/shown in the menu even if the names inside the cue file are correct, ex (i tested to put them in a folder, in the root, etc with no success):

3x3.iso + 3x3.cue

where .cue file content is the following:

FILE "3X3.ISO" BINARY
TRACK 01 AUDIO
INDEX 01 00:00:00
TRACK 02 MODE1/2352
PREGAP 00:03:00
INDEX 01 00:17:21
TRACK 03 AUDIO
PREGAP 00:02:00
INDEX 01 17:49:23
TRACK 04 AUDIO
INDEX 01 19:30:21
TRACK 05 AUDIO
INDEX 01 21:52:09
TRACK 06 AUDIO
INDEX 01 25:10:25
TRACK 07 MODE1/2352
PREGAP 00:03:00
INDEX 01 32:45:06

Can someone help me solving that problem ? I have latest (I suppose) fw 1.02 r05

User avatar
neodev
Posts: 224
Joined: 09 Apr 2018, 14:47

Re: ISO+CUE Problem

03 May 2019, 23:21

Did you create a directory for each game?
You need to create a directory, for example "3x3 Eyes", then place there the .cue and iso (or bin, or wav) files for that game.
Then in the game list, press "SELECT" to change between Hucard and CD lists.
Also, remember that you must set a BIOS file.

asper
Posts: 3
Joined: 03 May 2019, 23:03

Re: ISO+CUE Problem

04 May 2019, 00:32

Well... i forgot to press select.. il will test tomorrow, Thank You very much !

Return to “Super SD System 3 Tech Support”