mattwdr
Posts: 3
Joined: 09 Mar 2019, 02:37

No CD Music Audio

09 Mar 2019, 02:48

Hello,

Received my SSD in the mail today, but unfortunately am having issues getting the CD music audio to work. Sound effects work fine as do all sound on HuCards. I have checked the normal issues (file names, properly putting them into folders) and cannot seem to figure out the issue. The .cue and .bin match both the folder name and each other.

PCEngine model: TG16

Power Supply: OEM

Video cable: HD Retrovision Genesis
SD card brand: Sandisk 32GB

Region modded?: NO

SSDS3 revision 1 or 2?: Assuming 2 as I ordered New on Wednesday

In Game Trigger enabled in the Options menu? NO
Any other details specific to your setup: Cables direct to CRT TV

EXAMPLE: G:\ImageFight II - Operation Deepstriker (Japan)

FILE "ImageFight II - Operation Deepstriker (Japan) (Track 01).bin" BINARY
TRACK 01 AUDIO
INDEX 01 00:00:00
FILE "ImageFight II - Operation Deepstriker (Japan) (Track 02).bin" BINARY
TRACK 02 MODE1/2352
INDEX 00 00:00:00
INDEX 01 00:02:00
FILE "ImageFight II - Operation Deepstriker (Japan) (Track 03).bin" BINARY
TRACK 03 AUDIO
INDEX 00 00:00:00
INDEX 01 00:02:00
FILE "ImageFight II - Operation Deepstriker (Japan) (Track 04).bin" BINARY
TRACK 04 AUDIO
INDEX 01 00:00:00
FILE "ImageFight II - Operation Deepstriker (Japan) (Track 05).bin" BINARY
TRACK 05 AUDIO
INDEX 01 00:00:00
FILE "ImageFight II - Operation Deepstriker (Japan) (Track 06).bin" BINARY
TRACK 06 AUDIO
INDEX 01 00:00:00
FILE "ImageFight II - Operation Deepstriker (Japan) (Track 07).bin" BINARY
TRACK 07 AUDIO
INDEX 01 00:00:00
FILE "ImageFight II - Operation Deepstriker (Japan) (Track 08).bin" BINARY
TRACK 08 AUDIO
INDEX 01 00:00:00
FILE "ImageFight II - Operation Deepstriker (Japan) (Track 09).bin" BINARY
TRACK 09 AUDIO
INDEX 01 00:00:00
FILE "ImageFight II - Operation Deepstriker (Japan) (Track 10).bin" BINARY
TRACK 10 AUDIO
INDEX 01 00:00:00
FILE "ImageFight II - Operation Deepstriker (Japan) (Track 11).bin" BINARY
TRACK 11 AUDIO
INDEX 01 00:00:00
FILE "ImageFight II - Operation Deepstriker (Japan) (Track 12).bin" BINARY
TRACK 12 AUDIO
INDEX 01 00:00:00
FILE "ImageFight II - Operation Deepstriker (Japan) (Track 13).bin" BINARY
TRACK 13 AUDIO
INDEX 01 00:00:00
FILE "ImageFight II - Operation Deepstriker (Japan) (Track 14).bin" BINARY
TRACK 14 AUDIO
INDEX 01 00:00:00
FILE "ImageFight II - Operation Deepstriker (Japan) (Track 15).bin" BINARY
TRACK 15 AUDIO
INDEX 01 00:00:00
FILE "ImageFight II - Operation Deepstriker (Japan) (Track 16).bin" BINARY
TRACK 16 AUDIO
INDEX 01 00:00:00
FILE "ImageFight II - Operation Deepstriker (Japan) (Track 17).bin" BINARY
TRACK 17 AUDIO
INDEX 01 00:00:00
FILE "ImageFight II - Operation Deepstriker (Japan) (Track 18).bin" BINARY
TRACK 18 AUDIO
INDEX 01 00:00:00
FILE "ImageFight II - Operation Deepstriker (Japan) (Track 19).bin" BINARY
TRACK 19 AUDIO
INDEX 01 00:00:00
FILE "ImageFight II - Operation Deepstriker (Japan) (Track 20).bin" BINARY
TRACK 20 AUDIO
INDEX 01 00:00:00
FILE "ImageFight II - Operation Deepstriker (Japan) (Track 21).bin" BINARY
TRACK 21 AUDIO
INDEX 01 00:00:00
FILE "ImageFight II - Operation Deepstriker (Japan) (Track 22).bin" BINARY
TRACK 22 AUDIO
INDEX 01 00:00:00
FILE "ImageFight II - Operation Deepstriker (Japan) (Track 23).bin" BINARY
TRACK 23 AUDIO
INDEX 01 00:00:00
FILE "ImageFight II - Operation Deepstriker (Japan) (Track 24).bin" BINARY
TRACK 24 AUDIO
INDEX 01 00:00:00
FILE "ImageFight II - Operation Deepstriker (Japan) (Track 25).bin" BINARY
TRACK 25 MODE1/2352
INDEX 00 00:00:00
INDEX 01 00:02:00



The .cue file is in the same folder with the exact same file name as the folder.

Any help much appreciated!
- Matt

User avatar
Todd
Admin
Posts: 301
Joined: 08 Apr 2018, 22:25
Location: Cincinnati, OH
Contact: Twitter YouTube

Re: No CD Music Audio

09 Mar 2019, 03:20

That .cue file references a bunch of separate audio .bin files.

Do they also exist in that folder? or is it just 1 bin and 1 cue file?

mattwdr
Posts: 3
Joined: 09 Mar 2019, 02:37

Re: No CD Music Audio

09 Mar 2019, 04:49

Hi, thanks for the quick reply!

Yes, the folder contains one .cue file and multiple .bin files.

mattwdr
Posts: 3
Joined: 09 Mar 2019, 02:37

Re: No CD Music Audio

09 Mar 2019, 05:49

UPDATE

I tried other cables and still having same issue. I’m at firmware version 1.02

Return to “Super SD System 3 Tech Support”