User avatar
Pharfetchd
Posts: 13
Joined: 26 Apr 2018, 19:15

Re: Post Your Game Bugs here.

11 May 2018, 11:09

That's great, thanks for taking a look :) . I've gone through the rest of the TG16 library & the only other games that also boot to a black screen are Psychosis & Andre Panza Kick Boxing, i'd assume this is the same protection issues?

User avatar
neodev
Posts: 443
Joined: 09 Apr 2018, 14:47

Re: Post Your Game Bugs here.

11 May 2018, 11:19

Yes, same issue than Chew Fu Man . They both work now with the fixed protection checks.

User avatar
Pharfetchd
Posts: 13
Joined: 26 Apr 2018, 19:15

Re: Post Your Game Bugs here.

11 May 2018, 11:31

Fantastic :D

CharlieFriday
Posts: 3
Joined: 17 May 2018, 15:32

Re: Post Your Game Bugs here.

17 May 2018, 15:35

Hey guys, I have a bug to report.

Chou Jikyuu Yousai Macross 2036 (CD game) will load fine, title screen, intro, and when it goes to load the first level, hangs on a black screen with the SD card read light flashing. I"ve tried all of my bios files, and disabling the arcade card.

Core Grafx II
Stock NEC Power Supply
exFAT
SanDIsk 128GB
Trigger off
Arcade card on/off
Tried all bios files
IsoZone and personal rip, neither worked. I can get the md5/hash if needed. ISO/CUE

User avatar
Pharfetchd
Posts: 13
Joined: 26 Apr 2018, 19:15

Re: Post Your Game Bugs here.

17 May 2018, 20:37

What did you use to rip your own copy? I used TurboRip 1.40 & everything works fine on my setup below.

*Edit*
Just tried the version you used from IsoZone & there is definately some issue with that rip as I get the same error.

Hardware used = SuperGrafx, SSDS3 V2

Power Supply = GOOD-LEAD 9v 1000mA

SD Card/Format = 64Gb Sandisk Ultra MicroSD ExFat

CD Rips/HuCard Roms = TurboRip 1.40

IGR = On

Arcade Card = On

CharlieFriday
Posts: 3
Joined: 17 May 2018, 15:32

Re: Post Your Game Bugs here.

18 May 2018, 02:12

I used TR... not 1.4, I need to update.

OK good to know that's just a bad rip. Good stuff, I'll update my TR tomorrow and try again! Thanks!

Also, dig the handle. #pokemon4life

User avatar
Pharfetchd
Posts: 13
Joined: 26 Apr 2018, 19:15

Re: Post Your Game Bugs here.

18 May 2018, 10:48

No problem :) hopefully TurboRip 1.40 works for you.

One thing I did find after my original post was, if you mount the cue file of the rip from IsoZone using something like Daemon Tools to create a Virtual Drive then use TurboRip to make a copy from that it works just fine.

Probably worth considering giving that a try for anyone who is having problems with images they've downloaded as this could fix it in some cases.

User avatar
neodev
Posts: 443
Joined: 09 Apr 2018, 14:47

Re: Post Your Game Bugs here.

18 May 2018, 11:31

I need to get those dumps to see what's wrong with the cue file parsing. I suspect some of the pregaps is not properly computed and reads garbage.

User avatar
Pharfetchd
Posts: 13
Joined: 26 Apr 2018, 19:15

Re: Post Your Game Bugs here.

18 May 2018, 12:31

neodev wrote:
18 May 2018, 11:31
I need to get those dumps to see what's wrong with the cue file parsing. I suspect some of the pregaps is not properly computed and reads garbage.

This is the CUE file from the image that wasn't loading after the intro
FILE "CHOUJIKUU_YOUSAI_MACROSS_2036_(NTSC-J)_[NSCD2007].ISO" BINARY
TRACK 01 AUDIO
INDEX 01 00:00:00
TRACK 02 MODE1/2352
PREGAP 00:03:00
INDEX 01 00:44:65
TRACK 03 AUDIO
PREGAP 00:02:00
INDEX 01 01:50:66
TRACK 04 AUDIO
INDEX 00 02:58:60
INDEX 01 03:00:60
TRACK 05 AUDIO
INDEX 00 06:06:18
INDEX 01 06:08:18
TRACK 06 AUDIO
INDEX 00 09:16:00
INDEX 01 09:18:00
TRACK 07 AUDIO
INDEX 00 12:25:43
INDEX 01 12:27:43
TRACK 08 AUDIO
INDEX 00 15:35:18
INDEX 01 15:37:18
TRACK 09 AUDIO
INDEX 00 18:44:05
INDEX 01 18:46:05
TRACK 10 AUDIO
INDEX 00 21:52:46
INDEX 01 21:54:46
TRACK 11 AUDIO
INDEX 00 26:41:64
INDEX 01 26:43:64
TRACK 12 AUDIO
INDEX 00 29:49:57
INDEX 01 29:51:57
TRACK 13 AUDIO
INDEX 00 29:55:39
INDEX 01 29:57:39
TRACK 14 AUDIO
INDEX 00 30:06:71
INDEX 01 30:08:71
TRACK 15 AUDIO
INDEX 00 33:14:43
INDEX 01 33:16:43
TRACK 16 AUDIO
INDEX 00 33:33:47
INDEX 01 33:35:47
TRACK 17 MODE1/2352
PREGAP 00:03:00
INDEX 01 35:16:72
TRACK 18 AUDIO
PREGAP 00:02:00
INDEX 01 35:39:32
TRACK 19 AUDIO
INDEX 00 36:20:05
INDEX 01 36:22:05
TRACK 20 AUDIO
INDEX 00 36:37:65
INDEX 01 36:39:65
TRACK 21 AUDIO
INDEX 00 37:06:57
INDEX 01 37:08:57
TRACK 22 AUDIO
INDEX 00 38:25:14
INDEX 01 38:27:14
TRACK 23 AUDIO
INDEX 00 40:26:44
INDEX 01 40:28:44
TRACK 24 AUDIO
INDEX 00 41:11:57
INDEX 01 41:13:57
TRACK 25 AUDIO
INDEX 00 41:28:15
INDEX 01 41:30:15
TRACK 26 AUDIO
INDEX 00 43:52:40
INDEX 01 43:54:40
TRACK 27 AUDIO
INDEX 00 44:26:12
INDEX 01 44:28:12
TRACK 28 AUDIO
INDEX 00 46:50:61
INDEX 01 46:52:61
TRACK 29 AUDIO
INDEX 00 48:55:35
INDEX 01 48:57:35
TRACK 30 AUDIO
INDEX 00 49:08:64
INDEX 01 49:10:64
TRACK 31 AUDIO
INDEX 00 51:07:00
INDEX 01 51:09:00
TRACK 32 AUDIO
INDEX 00 51:14:56
INDEX 01 51:16:56
TRACK 33 AUDIO
INDEX 00 52:16:22
INDEX 01 52:18:22
TRACK 34 AUDIO
INDEX 00 53:01:17
INDEX 01 53:03:17
TRACK 35 AUDIO
INDEX 00 54:39:24
INDEX 01 54:41:24

Same image mounted with Daemon Tools and ripped with TurboRip which now works
FILE "01 Macross 2036 (J).wav" WAVE
TRACK 01 AUDIO
INDEX 01 00:00:00
FILE "02 Macross 2036 (J).iso" BINARY
TRACK 02 MODE1/2048
PREGAP 00:03:00
INDEX 01 00:00:00
FILE "03 Macross 2036 (J).wav" WAVE
TRACK 03 AUDIO
PREGAP 00:02:00
INDEX 01 00:00:00
FILE "04 Macross 2036 (J).wav" WAVE
TRACK 04 AUDIO
INDEX 01 00:00:00
FILE "05 Macross 2036 (J).wav" WAVE
TRACK 05 AUDIO
INDEX 01 00:00:00
FILE "06 Macross 2036 (J).wav" WAVE
TRACK 06 AUDIO
INDEX 01 00:00:00
FILE "07 Macross 2036 (J).wav" WAVE
TRACK 07 AUDIO
INDEX 01 00:00:00
FILE "08 Macross 2036 (J).wav" WAVE
TRACK 08 AUDIO
INDEX 01 00:00:00
FILE "09 Macross 2036 (J).wav" WAVE
TRACK 09 AUDIO
INDEX 01 00:00:00
FILE "10 Macross 2036 (J).wav" WAVE
TRACK 10 AUDIO
INDEX 01 00:00:00
FILE "11 Macross 2036 (J).wav" WAVE
TRACK 11 AUDIO
INDEX 01 00:00:00
FILE "12 Macross 2036 (J).wav" WAVE
TRACK 12 AUDIO
INDEX 01 00:00:00
FILE "13 Macross 2036 (J).wav" WAVE
TRACK 13 AUDIO
INDEX 01 00:00:00
FILE "14 Macross 2036 (J).wav" WAVE
TRACK 14 AUDIO
INDEX 01 00:00:00
FILE "15 Macross 2036 (J).wav" WAVE
TRACK 15 AUDIO
INDEX 01 00:00:00
FILE "16 Macross 2036 (J).wav" WAVE
TRACK 16 AUDIO
INDEX 01 00:00:00
FILE "17 Macross 2036 (J).iso" BINARY
TRACK 17 MODE1/2048
PREGAP 00:03:00
INDEX 01 00:00:00
FILE "18 Macross 2036 (J).wav" WAVE
TRACK 18 AUDIO
PREGAP 00:02:00
INDEX 01 00:00:00
FILE "19 Macross 2036 (J).wav" WAVE
TRACK 19 AUDIO
INDEX 01 00:00:00
FILE "20 Macross 2036 (J).wav" WAVE
TRACK 20 AUDIO
INDEX 01 00:00:00
FILE "21 Macross 2036 (J).wav" WAVE
TRACK 21 AUDIO
INDEX 01 00:00:00
FILE "22 Macross 2036 (J).wav" WAVE
TRACK 22 AUDIO
INDEX 01 00:00:00
FILE "23 Macross 2036 (J).wav" WAVE
TRACK 23 AUDIO
INDEX 01 00:00:00
FILE "24 Macross 2036 (J).wav" WAVE
TRACK 24 AUDIO
INDEX 01 00:00:00
FILE "25 Macross 2036 (J).wav" WAVE
TRACK 25 AUDIO
INDEX 01 00:00:00
FILE "26 Macross 2036 (J).wav" WAVE
TRACK 26 AUDIO
INDEX 01 00:00:00
FILE "27 Macross 2036 (J).wav" WAVE
TRACK 27 AUDIO
INDEX 01 00:00:00
FILE "28 Macross 2036 (J).wav" WAVE
TRACK 28 AUDIO
INDEX 01 00:00:00
FILE "29 Macross 2036 (J).wav" WAVE
TRACK 29 AUDIO
INDEX 01 00:00:00
FILE "30 Macross 2036 (J).wav" WAVE
TRACK 30 AUDIO
INDEX 01 00:00:00
FILE "31 Macross 2036 (J).wav" WAVE
TRACK 31 AUDIO
INDEX 01 00:00:00
FILE "32 Macross 2036 (J).wav" WAVE
TRACK 32 AUDIO
INDEX 01 00:00:00
FILE "33 Macross 2036 (J).wav" WAVE
TRACK 33 AUDIO
INDEX 01 00:00:00
FILE "34 Macross 2036 (J).wav" WAVE
TRACK 34 AUDIO
INDEX 01 00:00:00
FILE "35 Macross 2036 (J).wav" WAVE
TRACK 35 AUDIO
INDEX 01 00:00:00

User avatar
neodev
Posts: 443
Joined: 09 Apr 2018, 14:47

Re: Post Your Game Bugs here.

18 May 2018, 13:45

Thanks. I think the issue is with Index 00 handling

Return to “Super SD System 3 Discussion”