Search found 9 matches

Go to advanced search

by ultpaladin
20 Apr 2020, 21:08
Forum: Feedback and Suggestions
Topic: order paid for but not getting a confirmation email plz help :)
Replies: 3
Views: 1582

Re: order paid for but not getting a confirmation email plz help :)

I have a similar issue except my payment was confirmed and I have not received a confirmation email. I checked my credit card and it was charged.
by ultpaladin
05 Jan 2020, 00:59
Forum: MegaSD Discussion
Topic: Getting Emulator Saves to work on Mega SD
Replies: 3
Views: 3253

Getting Emulator Saves to work on Mega SD

I have some Kega Fusion files for Shining Force and Vay and I was wondering if it was possible to get them to work on the Mega SD. When I looked at the backup folder on the Mega SD, it looks like each game had a .bak and a .srm file. I'm guessing the first one is like the memory that came on the act...
by ultpaladin
01 Jul 2019, 02:53
Forum: MegaSD Discussion
Topic: About the way to organize your SD card
Replies: 7
Views: 3322

Re: About the way to organize your SD card

Is is possible to move save RAM for games like Shining Force CD from Kega emulators to the Mega SD and have them work?
by ultpaladin
03 Sep 2018, 02:23
Forum: Super SD System 3 Discussion
Topic: Getting Translations and Recent Games to Work
Replies: 8
Views: 3325

Re: Getting Translations and Recent Games to Work

I was able to get most of the games I had issues with to work. I think it just came down to the program I used to rip the files off the CDs. I was able to get Mysterious Song, Dracula X (English) and Startling Odyssey 2 (English) to work. The Ys 4 English dubbed version does not work past the initia...
by ultpaladin
22 May 2018, 03:37
Forum: Super SD System 3 Discussion
Topic: Getting Translations and Recent Games to Work
Replies: 8
Views: 3325

Re: Getting Translations and Recent Games to Work

Magic Engine as far as I know does not support using iso files. I did try Mysterious Song and the English translated disk of Startling Odyssey 2 on Magic Engine and they both worked. I used Turbo Ripper on both disks and tried them on the SSDS3 but they still did not work. However the ripped content...
by ultpaladin
21 May 2018, 17:30
Forum: Super SD System 3 Discussion
Topic: Getting Translations and Recent Games to Work
Replies: 8
Views: 3325

Re: Getting Translations and Recent Games to Work

I have continued to experiment with this. I converted the bin files to iso files (it shows up as a disk image file) and then altered the cue file to refer to that file. The folder name, cue and iso names all have the same name. I try it and the system still says load error. Does anyone here have a l...
by ultpaladin
17 May 2018, 01:38
Forum: Super SD System 3 Discussion
Topic: Getting Translations and Recent Games to Work
Replies: 8
Views: 3325

Re: Getting Translations and Recent Games to Work

Here is an example for the fan made game FILE "Mysterious Song.bin" BINARY REM SESSION 01 TRACK 01 AUDIO INDEX 01 00:00:00 TRACK 02 MODE1/2352 INDEX 01 01:18:43 TRACK 03 AUDIO INDEX 01 02:03:39 TRACK 04 AUDIO INDEX 01 04:14:23 TRACK 05 AUDIO INDEX 01 06:36:27 TRACK 06 AUDIO INDEX 01 07:40:61 TRACK 0...
by ultpaladin
16 May 2018, 18:29
Forum: Super SD System 3 Discussion
Topic: Getting Translations and Recent Games to Work
Replies: 8
Views: 3325

Re: Getting Translations and Recent Games to Work

I looked at the cue files and it looks like they list the bin file out correctly. I did notice though that those 3 files with load errors that I mentioned don't match entirely with the games that already do work. The files that do work have a cue file and the main file is listed as a WinRAR file eve...
by ultpaladin
16 May 2018, 05:20
Forum: Super SD System 3 Discussion
Topic: Getting Translations and Recent Games to Work
Replies: 8
Views: 3325

Getting Translations and Recent Games to Work

Hello, The Super SD System 3 has been working pretty well for me. Most of the games work and the save system seems to work nice. The only real exception to all of this have been games that were either given translation patches ( Ys 4, Startling Odyssey) or fan made games like Mysterious Song. The th...

Go to advanced search